Для входа на форум нажмите здесь
Новые комментарии
перкодировка видео
Автор темы: kalstrams_renamed_641399_01072020
Дата создания: 10.07.2013 00:03
перкодировка видео
Чем ковертировать видеофайлы примерно по 100 GB, при потоке картинки 720p@30fps (звук MP3, 320kbps), что-бы со 100 GB попасть где-то к 2 GB или меньше ?

Плафторма без разницы какая, нужен, правда, софт с бесплатной лицензией, использование нелегального софта (платить тоже не канает) исключено.
Re: перкодировка видео
а исходник какого формата?

※ Гоховский сервер в Discord. Вступай! Подписывайся на канал с новостями - автоматический постинг на ваш сервер!

Настройка стрима - гайды, статьи и руководства
※ Нужна помощь по настройке трансляции? Вам сюда!
Re: перкодировка видео
General
Complete name : D:\Capture\Video\aces 2013-07-09 23-25-42-079.avi
Format : AVI
Format/Info : Audio Video Interleave
Format profile : OpenDML
File size : 67.1 GiB
Duration : 14mn 33s
Overall bit rate : 660 Mbps
Original source form/Distribut : Video:RGB24 Audio:Line 1 (Virtual Audio Cable)
Writing application : DxtoryCore ver2.0.0.123

Video
ID : 0
Format : xtor
Codec ID : xtor
Duration : 14mn 33s
Bit rate : 659 Mbps
Width : 1 280 pixels
Height : 720 pixels
Display aspect ratio : 16:9
Frame rate : 30.000 fps
Bits/(Pixel*Frame) : 23.821
Stream size : 67.0 GiB (100%)

Audio
ID : 1
Format : PCM
Format settings, Endianness : Little
Format settings, Sign : Signed
Codec ID : 1
Duration : 14mn 33s
Bit rate mode : Constant
Bit rate : 1 536 Kbps
Channel(s) : 2 channels
Sampling rate : 48.0 KHz
Bit depth : 16 bits
Stream size : 160 MiB (0%)
Alignment : Aligned on interleaves
Interleave, duration : 999 ms (29.97 video frames)

Вот инфа по примеру одного из файлов.
Re: перкодировка видео
можно этой прогой воспользоваться http://www.any-video-converter.com/

Хотя есть умельцы делают с Megui или как там.

※ Гоховский сервер в Discord. Вступай! Подписывайся на канал с новостями - автоматический постинг на ваш сервер!

Настройка стрима - гайды, статьи и руководства
※ Нужна помощь по настройке трансляции? Вам сюда!
Re: перкодировка видео
О, за Megui спасибо

Судя по скринам, я даже с ней возился когда-то. Надо будет поставить.
Ваши права в разделе